você está aqui: Home  → Arquivo de Mensagens Programação Shell Linux: Inscrições Abertas

MediaInfo - Obtendo informações sobre mídias

Colaboração: João Paulo Eiti Kimura

Data de Publicação: 28 de September de 2008

Um utilitário interessante e que ajuda quando se necessita de informações de uma determinada media de vídeo, como frame rate, codecs de audio, vídeo, bitrate e etc, é o mediainfo.

O pacote debian do mediainfo pode ser baixado no sourceforge: http://sourceforge.net/project/showfiles.php?group_id=86862&package_id=90612&release_id=621340

No meu caso eu baixei o pacote deb:

sudo dpkg -i mediainfo.cli_0.7.7.5-2_i386.deb

Ou se estiver usando o gnome no ubuntu hardy, basta dar dois cliques sobre o pacote depois de baixado que o gerenciador de pacotes do gnome instala automaticamente o software.

Segue um exemplo de utilização do media info, digite no console:

mediainfo meuvideo.3gp

o resultado do media info:

General
Complete name                    : meuvideo.3gp
Format                           : MPEG-4
Format profile                   : 3GPP Media Release 5
Codec ID                         : 3gp5
File size                        : 490 KiB
Duration                         : 1mn 5s
Overall bit rate                 : 61.0 Kbps
Encoded date                     : UTC 2008-07-07 12:48:30
Tagged date                      : UTC 2008-07-07 12:48:30

Video
Format                           : H.263
Codec ID                         : s263
Duration                         : 1mn 5s
Bit rate mode                    : Variable
Bit rate                         : 38.9 Kbps
Width                            : 176 pixels
Height                           : 144 pixels
Display aspect ratio             : 1.222
Frame rate mode                  : Variable
Frame rate                       : 9.878 fps
Minimum frame rate               : 3.333 fps
Maximum frame rate               : 10.000 fps
Bits/(Pixel*Frame)               : 0.155
Stream size                      : 312 KiB (64%)
Encoded date                     : UTC 2008-07-07 12:48:30
Tagged date                      : UTC 2008-07-07 12:48:30

Audio
Format                           : AMR
Format/Info                      : Adaptive Multi-Rate
Format profile                   : Narrow band
Codec ID                         : samr
Duration                         : 1mn 5s
Bit rate mode                    : Constant
Bit rate                         : 8400 bps
Channel(s)                       : 2 channels
Sampling rate                    : 8000 Hz
Resolution                       : 16 bits
Stream size                      : 67.5 KiB (14%)
Encoded date                     : UTC 2008-07-07 12:48:30
Tagged date                      : UTC 2008-07-07 12:48:30

Se eu quiser obter a informação de um campo específico, como por exemplo a altura do vídeo em pixels e também o codec utilizado, poderia fazer:

mediainfo --Inform="Video;%Height%" meuvideo.3gp
mediainfo --Inform="Video;%Format%" meuvideo.3gp

resultado:

144
H.263

Ou então, queira saber o codec de audio utilizado no vídeo:

mediainfo --inform="Audio;%Codec%" meuvideo.3gp

resultado:

AMR

Essa ferramenta é muito util quando se deseja obter informações mais detalhadas de um determinado tipo de mídia.



Veja a relação completa dos artigos de João Paulo Eiti Kimura